The Music Of Bessie Smith taught with Fred Sokolow

The Music Of Bessie Smith taught with Fred Sokolow
The Music Of Bessie Smith taught with Fred Sokolow
DVD5 | English | VIDEO_TS | 720 x 480 | MPEG2 ~5000 kbps | 29.970 fps
AC-3 256 Kbps 48.0 KHz | 2 channel | 01:38:00 | 3.72 GB
Genre: eLearning Video / Guitar lesson


In the 1920s and 30s, Bessie Smith was the empress of the blues. Her passionate singing and performing style and her songwriting influenced all the blues and jazz singers that followed. Many of the songs she popularized, both blues and tin pan alley tunes, have become standards in blues, jazz, rock and pop music. Songs in this collection have been recorded by artists as diverse as Eric Clapton, Leadbelly, Billie Holiday, Chet Atkins, Bing Crosby, David Lee Roth, Big Bill Broonzy, B. B. King and Sam Cooke.
They're great tunes for guitar pickers, and Fred shows you how to back yourself up singing them and how to fingerpick instrumental versions of six classics. With his explanations of the arrangements, split-screen, slowed-down versions of the songs, and with the tab and music in the PDF booklet on the DVD, youll learn how to play St. Louis Blues, Nobody Knows You When Youre Down and Out, Backwater Blues, After Youve Gone, I Aint Got Nobody and the sensational Send Me To the Electric Chair. The songs sound terrific on guitar, and with Freds instruction, the arrangements are easy to follow. A 1920s film of Bessie Smith singing St. Louis Blues is featured at the end of the lesson.


General
Complete name : VTS_02_1.VOB
Format : MPEG-PS
File size : 1 024 MiB
Duration : 26 min 40 s
Overall bit rate mode : Constant
Overall bit rate : 5 366 kb/s

Video
ID : 224 (0xE0)
Format : MPEG Video
Format version : Version 2
Format profile : [email protected]
Format settings : CustomMatrix / BVOP
Format settings, BVOP : Yes
Format settings, Matrix : Custom
Format settings, GOP : M=3, N=15
Format settings, picture structure : Frame
Duration : 26 min 40 s
Bit rate mode : Constant
Bit rate : 5 000 kb/s
Width : 720 pixels
Height : 480 pixels
Display aspect ratio : 4:3
Frame rate : 29.970 (30000/1001) FPS
Standard : NTSC
Color space : YUV
Chroma subsampling : 4:2:0
Bit depth : 8 bits
Scan type : Interlaced
Scan order : Top Field First
Compression mode : Lossy
Bits/(Pixel*Frame) : 0.483
Time code of first frame : 01:00:18;26
Time code source : Group of pictures header
GOP, Open/Closed : Closed
Stream size : 955 MiB (93%)

Audio
ID : 189 (0xBD)-128 (0x80)
Format : AC-3
Format/Info : Audio Coding 3
Muxing mode : DVD-Video
Duration : 26 min 40 s
Bit rate mode : Constant
Bit rate : 256 kb/s
Channel(s) : 2 channels
Channel positions : Front: L R
Sampling rate : 48.0 kHz
Frame rate : 31.250 FPS (1536 SPF)
Bit depth : 16 bits
Compression mode : Lossy
Stream size : 48.8 MiB (5%)
Service kind : Complete Main

Menu


The Music Of Bessie Smith taught with Fred Sokolow

Download link:

Download Via Rapidgator.net
https://rapidgator.net/file/a5f36be787640cd7c7ec3d572f556a40/mw8pn.The.Music.Of.Bessie.Smith.taught.with.Fred.Sokolow.part1.rar.html
https://rapidgator.net/file/f0c71381b92a724ca262db1dd0f284df/mw8pn.The.Music.Of.Bessie.Smith.taught.with.Fred.Sokolow.part2.rar.html
https://rapidgator.net/file/dfeaf7846b26937e62eddb8733533ad7/mw8pn.The.Music.Of.Bessie.Smith.taught.with.Fred.Sokolow.part3.rar.html
https://rapidgator.net/file/fd0a59d6f0e8b59c942106b2338314b5/mw8pn.The.Music.Of.Bessie.Smith.taught.with.Fred.Sokolow.part4.rar.html
https://rapidgator.net/file/6432342aba5e4391cad0fe4829ec0017/mw8pn.The.Music.Of.Bessie.Smith.taught.with.Fred.Sokolow.part5.rar.html
https://rapidgator.net/file/2905a4f1a7088edb17a399f101075b4b/mw8pn.The.Music.Of.Bessie.Smith.taught.with.Fred.Sokolow.part6.rar.html
https://rapidgator.net/file/ff1b22e7122ba9adcdc8d1243c4cb5e2/mw8pn.The.Music.Of.Bessie.Smith.taught.with.Fred.Sokolow.part7.rar.html

Download Via Turbobit.net
https://turbobit.net/1xx6qmm6s1az/mw8pn.The.Music.Of.Bessie.Smith.taught.with.Fred.Sokolow.part1.rar.html
https://turbobit.net/ppflmlirdo75/mw8pn.The.Music.Of.Bessie.Smith.taught.with.Fred.Sokolow.part2.rar.html
https://turbobit.net/1wukoql1zeyr/mw8pn.The.Music.Of.Bessie.Smith.taught.with.Fred.Sokolow.part3.rar.html
https://turbobit.net/nkz0hk1cudvt/mw8pn.The.Music.Of.Bessie.Smith.taught.with.Fred.Sokolow.part4.rar.html
https://turbobit.net/iu4govuyxws9/mw8pn.The.Music.Of.Bessie.Smith.taught.with.Fred.Sokolow.part5.rar.html
https://turbobit.net/iwngujt946gq/mw8pn.The.Music.Of.Bessie.Smith.taught.with.Fred.Sokolow.part6.rar.html
https://turbobit.net/nq0h47t7ockg/mw8pn.The.Music.Of.Bessie.Smith.taught.with.Fred.Sokolow.part7.rar.html

Download Via Uploadgig.com
https://uploadgig.com/file/download/e5687b45C42A7b95/mw8pn.The.Music.Of.Bessie.Smith.taught.with.Fred.Sokolow.part1.rar
https://uploadgig.com/file/download/e5065a3950f6f2B2/mw8pn.The.Music.Of.Bessie.Smith.taught.with.Fred.Sokolow.part2.rar
https://uploadgig.com/file/download/f8ea3D5831c0cd56/mw8pn.The.Music.Of.Bessie.Smith.taught.with.Fred.Sokolow.part3.rar
https://uploadgig.com/file/download/F6be8c9799d53141/mw8pn.The.Music.Of.Bessie.Smith.taught.with.Fred.Sokolow.part4.rar
https://uploadgig.com/file/download/1ea101102f014b46/mw8pn.The.Music.Of.Bessie.Smith.taught.with.Fred.Sokolow.part5.rar
https://uploadgig.com/file/download/311c4026394447E2/mw8pn.The.Music.Of.Bessie.Smith.taught.with.Fred.Sokolow.part6.rar
https://uploadgig.com/file/download/4a96Ac041b0156df/mw8pn.The.Music.Of.Bessie.Smith.taught.with.Fred.Sokolow.part7.rar

Links are Interchangeable - No Password - Single Extraction

Related News

Comments 0

Edited byDownload torrent