The Guitar of Blind Boy Fuller taught by Ari Eisinger

The Guitar of Blind Boy Fuller taught by Ari Eisinger
The Guitar of Blind Boy Fuller taught by Ari Eisinger
DVD5 | English | VIDEO_TS | 720 x 480 | MPEG2 ~5813 kbps | 29.970 fps
AC-3 192 Kbps 48.0 KHz | 2 channel | 1h 28min | 4.11 GB
Genre: eLearning Video / Guitar lesson


Blind Boy Fuller recorded his unique brand of country blues from 1935 through 1940. His playing is chock-full of both wit and soulfulness. His guitar arrangements are strikingly original and make perfect use of the unique sound of the National steel guitar which he used on most of his recordings. He is best known for his classic Truckin' My Blues Away which has been performed and recorded by generations of blues and rock guitarists.
This DVD gives a fully-detailed presentation of Blind Boy Fuller's intricate guitar work on six of his best recordings.
Contrary to the rumors, blues and ragtime guitarist Ari Eisinger has only 10 fingers. It just sounds as if he has more. His mission is to preserve the classic blues and ragtime tunes from the 1920s and 1930s.


General
Complete name : VTS_02_2.VOB
Format : MPEG-PS
File size : 1 024 MiB
Duration : 23 min 21 s
Overall bit rate mode : Variable
Overall bit rate : 6 127 kb/s

Video
ID : 224 (0xE0)
Format : MPEG Video
Format version : Version 2
Format profile : [email protected]
Format settings : CustomMatrix / BVOP
Format settings, BVOP : Yes
Format settings, Matrix : Custom
Format settings, GOP : M=3, N=15
Format settings, picture structure : Frame
Duration : 23 min 21 s
Bit rate mode : Variable
Bit rate : 5 813 kb/s
Maximum bit rate : 9 000 kb/s
Width : 720 pixels
Height : 480 pixels
Display aspect ratio : 4:3
Frame rate : 29.970 (30000/1001) FPS
Standard : NTSC
Color space : YUV
Chroma subsampling : 4:2:0
Bit depth : 8 bits
Scan type : Interlaced
Scan order : Top Field First
Compression mode : Lossy
Bits/(Pixel*Frame) : 0.561
Time code of first frame : 01:23:38:09
Time code source : Group of pictures header
GOP, Open/Closed : Closed
Stream size : 971 MiB (95%)

Audio
ID : 189 (0xBD)-128 (0x80)
Format : AC-3
Format/Info : Audio Coding 3
Muxing mode : DVD-Video
Duration : 23 min 21 s
Bit rate mode : Constant
Bit rate : 192 kb/s
Channel(s) : 2 channels
Channel positions : Front: L R
Sampling rate : 48.0 kHz
Frame rate : 31.250 FPS (1536 SPF)
Bit depth : 16 bits
Compression mode : Lossy
Delay relative to video : -431 ms
Stream size : 32.1 MiB (3%)
Service kind : Complete Main

Menu

The Guitar of Blind Boy Fuller taught by Ari Eisinger

Download link:

Download Via Rapidgator.net
https://rapidgator.net/file/6d329f5f80ead9c842b5c4fa3283c2ca/lb8ld.The.Guitar.of.Blind.Boy.Fuller.taught.by.Ari.Eisinger.part1.rar.html
https://rapidgator.net/file/dcc8376268e153cabc8d59f7b58bf2bd/lb8ld.The.Guitar.of.Blind.Boy.Fuller.taught.by.Ari.Eisinger.part2.rar.html
https://rapidgator.net/file/448c96e318f9e9f9cfe5c0ade59ac7b9/lb8ld.The.Guitar.of.Blind.Boy.Fuller.taught.by.Ari.Eisinger.part3.rar.html
https://rapidgator.net/file/242fc369fd13218369f419703a39a867/lb8ld.The.Guitar.of.Blind.Boy.Fuller.taught.by.Ari.Eisinger.part4.rar.html
https://rapidgator.net/file/47be3cdf7e438197ae03260ca356ae3f/lb8ld.The.Guitar.of.Blind.Boy.Fuller.taught.by.Ari.Eisinger.part5.rar.html
https://rapidgator.net/file/e49478ca72b53cbccaf2a9aabffcc3a5/lb8ld.The.Guitar.of.Blind.Boy.Fuller.taught.by.Ari.Eisinger.part6.rar.html

Download Via Turbobit.net
https://turbobit.net/cxyz6rsx2ckh/lb8ld.The.Guitar.of.Blind.Boy.Fuller.taught.by.Ari.Eisinger.part1.rar.html
https://turbobit.net/ku9q4he4cc0l/lb8ld.The.Guitar.of.Blind.Boy.Fuller.taught.by.Ari.Eisinger.part2.rar.html
https://turbobit.net/r8oz4vlf9yaa/lb8ld.The.Guitar.of.Blind.Boy.Fuller.taught.by.Ari.Eisinger.part3.rar.html
https://turbobit.net/732lxsqcdj0y/lb8ld.The.Guitar.of.Blind.Boy.Fuller.taught.by.Ari.Eisinger.part4.rar.html
https://turbobit.net/q6791v4h7ufn/lb8ld.The.Guitar.of.Blind.Boy.Fuller.taught.by.Ari.Eisinger.part5.rar.html
https://turbobit.net/9r2y9rhczdbj/lb8ld.The.Guitar.of.Blind.Boy.Fuller.taught.by.Ari.Eisinger.part6.rar.html

Links are Interchangeable - No Password - Single Extraction

Related News

Comments 0

Edited byDownload torrent